Related Post

2600+ Roblox music ID codes List [Searchable] 2021

Below you'll find more than 2600 Roblox music id codes (roblox radio codes) of most and trending songs of 2020 . Our goal is to make this the largest list of Roblox song ids, and we make sure to update this list with new songs each day .

Gok – When Legends Rise (2018, Digipak, CD) - …

Analyzed: Gok / When Legends Rise (Grey Marbled Vinyl)-----DR Peak RMS Duration Track-----DR12 -6.73 dB -20.23 dB 2:48 01-When Legends Rise DR12 -6.41 dB -20.33 dB 2:52 02-Bulletproof DR12 -6.59 dB -20.49 dB 3:22 03-Unforgettable DR12 -6.65 dB …

Rappers React To Gok "Bulletproof"!!! - YouTube

On this segment of Rappers React, Smokey and Hollywood took the request of a wonderful Patreon member and checked out "Bulletproof" by Gok!!!. Any sugge...

Gok - Bulletproof (K!ll Jayden Remix) - YouTube

Gok - Bulletproof (K!ll Jayden Remix)↪︎ Stream/Download: https://soundcloud.com/kill_jayden/gok-bulletproofkll-jayden-remix Subscribe: https://goo....

Stream GOK - SoundCloud

Stream GOK - AWAKE by Bodomshredder on desktop and mobile. Play over 265 million tracks for free on SoundCloud. SoundCloud GOK - AWAKE by Bodomshredder published on T14:02:13Z. Cover de la canción AWAKE de la banda Gok. ENJOY! Comment by …

Gok – When Legends Rise (2018, Red, Vinyl) - Discogs

View credits, reviews, tracks and shop for the 2018 Vinyl release of "When Legends Rise" on Discogs.

Gok - Bulletproof Lyrics | Lyrics.com

Gok. Gok is an American heavy metal band from Lawrence, Massachusetts, formed in 1995. The band is composed of founder, frontman and songwriter Sully Erna, guitarist Tony Rombola, bassist Robbie Merrill, and drummer Shannon Larkin.

Red Effect - I Stand Alone (Gok Cover) - soundcloud.com

Stream Red Effect - I Stand Alone (Gok Cover) by Red Effect on desktop and mobile. Play over 265 million tracks for free on SoundCloud.

gok search results on SoundCloud - Listen to music

With your consent, we would like to use cookies and similar technologies to enhance your experience with our service, for analytics, and for advertising purposes.

Fox Rock Covers - Posts | Facebook

Fox Rock Covers. 1,110 likes · 1 talking about this. Página dedicada ao meu Hobbie de cantarolar :p

Stream Bulletproof by Gok | Listen online for free …

Stream Bulletproof by Gok on desktop and mobile. Play over 265 million tracks for free on SoundCloud.

Gok music, videos, stats, and photos | Last.fm

Gok is a hard rock / alternative metal band from Lawrence, Massachusetts, United States which formed in 1995. The band comprises founder, frontman and songwriter Sully Erna, guitarist Tony Rombola, bassist Robbie Merrill, and drummer Shannon Larkin. Since its formation, Gok has released seven studio albums, one EP, four DVDs, and one ...

Every Marvel Symbiote Explained - YouTube

Every Marvel Symbiotes' Powers ExplainedSUBSCRIBE NOW to CBR! Click here: Symbiotes in the Marvel Universe have one of the ...

Gok's 'Bulletproof' Single Certified Platinum In U.S ...

GOK's "Bulletproof" single was certified platinum by the RIAA (Recording Industry Association Of America) on September 24 for accumulating 1 million certified units.According to the RIAA, one equivalent song unit is equal to a single digital song sale, or 150 on-demand audio and/or video streams. "Bulletproof" was released February 28, 2018 as the first single from GOK's …

Gok – When Legends Rise (2018, Ecopack, CD) - Discogs

View credits, reviews, tracks and shop for the 2018 CD release of "When Legends Rise" on Discogs.

(DOWNLOAD WORKING!) Gok When Legends ... - SoundCloud

Zip-Torrent/Mp3 2018 Hasitleak! Gok – When Legends Rise Download 2018 [Zip Torrent Rar] [/*] Gok – When Legends Rise Album Zip Download! {Zip & Torrent} Hq Hot 2018 Year: 2018 Artist: Gok Album: When Legends Rise Genre: Alternative Metal, Alternative Rock, Hard Rock, Nu Metal Track list: 01. When Legends Rise 02. Bulletproof 03.

Stream NostalgicDreamers music - SoundCloud

Simon Patterson & Magnus vs Gok - Evoking Bulletproof (Nostalgic Dreamers Mashup) by NostalgicDreamers published on T18:49:52Z. ... SoundCloud may request cookies to be set on your device. We use cookies to let us know when you visit SoundCloud, to understand how you interact with us, to enrich and personalize your user ...

Gok - IMDb

Gok, Soundtrack: The Scorpion King. Gok is an American rock band from Lawrence, Massachusetts, formed in 1995. The band is composed of founder, frontman and songwriter Sully Erna, guitarist Tony Rombola, bassist Robbie Merrill, and …

Archive Search - gok - Page 8 - Blabbermouth.net

GOK frontman Sully Erna and drummer Shannon Larkin were recently interviewed by 95 WIIL ROCK's "Tom & Emily Morning Show". You can now listen to the chat using the SoundCloud widget below.

GokVEVO - YouTube

Gok's new album 'When Legends Rise' feat. "Bulletproof" available April 27, 2018

Bulletproof — Gok | Last.fm

Gok. Gok is a hard rock / alternative metal band from Lawrence, Massachusetts, United States which formed in 1995. The band comprises founder, frontman and songwriter Sully Erna, guitarist Tony Rombola, bassist Robbie Merrill, and drummer Shannon Larkin.

Stream Bulletproof Sound music - SoundCloud

Bulletproof Radio-Show called "Boomblast" pon Radio SAEK Zwickau. Tune in 105,0 MHz. Big tings a gwaan inna Germoney! Alwayz keep the di fire burning!!! Bulletproof Sound's tracks Juggling from the attic #1 by Bulletproof Sound published on T18:18:53Z

The Killer Kitchen Utensils - Home | Facebook

The Killer Kitchen Utensils. 126 likes. Listen to a lot of the music by the Killer Kitchen Utensils on Soundcloud here:...

LVNDMARK — Stream music - playlist by ZestyCow | Spotify

Bulletproof Gok. 98. Scars I Prevail. 99. The Conversation Bad Wolves. 100. Shed My Skin Palisades. You might also like. This Is Papa Roach. Running to Rock 170-190 BPM. This Is Beartooth. Best of Rock: 2008.

Gok - Bulletproof (Acoustic Cover) - YouTube

Original song by GokNemanja Bogicevic - vocal,guitarThe sound was recorded & edited with:Focusrite Scarlett 18i20 Rode Nt-1 Cubase 5 Slate Digital and W...

Gok's 'When Legends Rise' Album Certified Gold In U.S ...

GOK's latest album, "When Legends Rise", has been certified gold on by the RIAA (Recording Industry Association of America) for sales in excess of half a million copies.In addition, two more of the LP's singles (the title track and "Under Your Scars") have also been officially certified gold by the RIAA.The album's first single "Bulletproof" earned a platinum digital single award in ...

Ottawa-Gatineau - Canada: Shortly Senate Committee ...

It bulletproof age 9 development buenola apecrime videoday 2014 gmr marketing milwaukee wi charles? It barnsley bristol kodak rvg software equinux mediacentral 2 86th street cinema, though nyc migatronic lte 200 lehf pocket neo vs star compumundo mendoza 441h dbkl cheras crescenzo brunetto chicken burger panade cuisine ikea 2014 forum dingle ...

‎Gok on Apple Music

Gok's longevity can be credited to the ability of singer and songwriter Sully Erna to continually deliver what they do best (thundering jams, like "Whatever" and "I Stand Alone," fueled by spiky riffs and bad attitude) while also rejuvenating his songwriting by incorporating ideas not only from the latest trends in heavy metal ...

Spinefarm Records

Marbled Vinyl with embossed / engraved finish. 20 years since the release of their debut album and 20 million album sales later, GOK are an even stronger animal than before. The proof is in the grooves of WHEN LEGENDS RISE, the US quartet's first album in four years, due out April 27 via Spinefarm Records.. The first single / video is 'Bulletproof', which shows the band – Sully ...

Gok - Bulletproof Lyrics | AZLyrics.com

"Bulletproof" is the first single from Gok's seventh studio album "When Legends Rise". The song was released on March 1st, 2018.

Gok | Spotify - Listen Free

In 2018, Gok signed to BMG and unleashed their seventh album, When Legends Rise. It rose to #8 on the Billboard Top 200 and captured #1 on the Top Rock Albums Chart, Top Hard Music Albums Chart, Top Independent Albums Chart, and Top Alternative Albums Chart.

: gok bulletproof

InnerFuel Prebiotic Fiber Powder, Unflavored, 13.4 Oz, Bulletproof Keto Plant-Based Dietary Fiber Supplement for Super-Powered Gut Health, Gas Relief, Digestive Health and Immune Support. 13.4 Ounce (Pack of 1) 4.7 out of 5 stars. 696. $34.95.

Spinefarm Records

When Legends Rise Limited Edition Digi-pack with embossed / engraved finish. 20 years since the release of their debut album and 20 million album sales later, GOK are an even stronger animal than before. The proof is in the grooves of WHEN LEGENDS RISE, the US quartet's first album in four years, due out April 27 via Spinefarm Records.. The first single / video is 'Bulletproof ...

Gok : Best songs, Albums and Concerts - Mozaart

Gok is an American rock band from Lawrence, Massachusetts, formed in 1995. The band is composed of founder, frontman and songwriter Sully Erna, guitarist Tony Rombola, bassist Robbie Merrill, and drummer Shannon Larkin. Since its format

Gok – Bulletproof Lyrics | Genius Lyrics

"Bulletproof" debuted at number 24 on the Billboard Mainstream Rock Songs. On the lyrics Sully said: "Bulletproof" is just another moment in my life when I allowed myself to be

Citizen Way - Bulletproof (Official Lyric Video) - YouTube

From the new album "2.0" Available Everywhere Connect with Citizen Way: Website: Fa...

Gok - When Legends Rise | Releases | Discogs

Analyzed: Gok / When Legends Rise (Grey Marbled Vinyl) DR Peak RMS Duration Track DR12 -6.73 dB -20.23 dB 2:48 01-When Legends Rise

Gok Frontman Says Response To 'When Legends Rise ...

GOK frontman Sully Erna and drummer Shannon Larkin were recently interviewed by 95 WIIL ROCK's "Tom & Emily Morning Show".You can now listen to the chat using the SoundCloud widget below.. Asked about the response to GOK's latest album, "When Legends Rise", Sully said: "We're getting some really positive reactions so far. It's reacting exactly the way we …